Kdenlive   bug tracker Home page

View Issue Details Jump to Notes ] Issue History ] Print ]
IDProjectCategoryView StatusDate SubmittedLast Update
0001377KdenliveMLTpublic2010-01-09 01:002010-02-20 08:17
ReporterMZ 
Assigned Toj-b-m 
PrioritynormalSeveritymajorReproducibilityalways
StatusclosedResolutionfixed 
Platform32 bit intel and alikeOSKubuntu LinuxOS Version9.10
Product Version0.7.6 
Target VersionFixed in Version0.7.7 
Summary0001377: Pixel Aspect Ration problem with PAL 4/3 clips
DescriptionThe problem looks very much like issue 245.
The clips appear with black vertical bars on the left and on the right in the clip and in the project monitors (DV/DVD 4/3 profile), and the image is slightly squeezed.
I didn't look at 16/9 clips, only at 4/3 clips.
Kdenlive seems not to see the 16/15 pixel aspect info in DV 4/3 clips.
Or maybe this info was not written in the file.
Kdenlive was used for video acquisition (avi2).
Clip properties: pixel format is 1.0000
If I force pixel aspect to 1.07, everything is fine.

ffmpeg gives:

Input #0, avi, from 'K7-2005a001.avi':
  Duration: 00:18:44.76, start: 0.000000, bitrate: 29832 kb/s
    Stream #0.0: Video: dvvideo, yuv420p, 720x576, 25 tbr, 25 tbn, 25 tbc
    Stream #0.1: Audio: pcm_s16le, 32000 Hz, stereo, s16, 1024 kb/s
TagsNo tags attached.
Build/Install Method3rd party package
Attached Files? file icon essai.avi [^] (18,713,152 bytes) 2010-01-20 23:00

- Relationships
related to 0001368closedj-b-m Wrong DV aspect ratio in Kdenlive "0.7.7" (= 0.76+svn4144) 

-  Notes
(0004526)
j-b-m (administrator)
2010-01-19 00:02

This is probably fixed in latest MLT's git repository. Can you please upload a small dv video sample so that we can check (or upgrade to latest MLT's git if you are comfortable with source compilation)
(0004547)
MZ (reporter)
2010-01-20 23:06

Hello, I uploaded a small sample. I am not comfortable with source compilation...
(0004554)
j-b-m (administrator)
2010-01-22 12:44

I confirm that the sample video now displays correctly with latest MLT.

- Issue History
Date Modified Username Field Change
2010-01-09 01:00 MZ New Issue
2010-01-10 20:11 j-b-m Relationship added related to 0001368
2010-01-19 00:02 j-b-m Note Added: 0004526
2010-01-19 00:02 j-b-m Status new => feedback
2010-01-20 23:00 MZ File Added: essai.avi
2010-01-20 23:06 MZ Note Added: 0004547
2010-01-20 23:06 MZ Status feedback => new
2010-01-22 12:44 j-b-m Note Added: 0004554
2010-01-22 12:44 j-b-m Status new => resolved
2010-01-22 12:44 j-b-m Fixed in Version => Recent git
2010-01-22 12:44 j-b-m Resolution open => fixed
2010-01-22 12:44 j-b-m Assigned To => j-b-m
2010-02-02 10:34 j-b-m Fixed in Version Recent git => 0.7.7
2010-02-20 08:17 j-b-m Status resolved => closed


Copyright © 2000 - 2014 MantisBT Team
Powered by Mantis Bugtracker