Kdenlive   bug tracker Home page

View Issue Details Jump to Notes ] Issue History ] Print ]
IDProjectCategoryView StatusDate SubmittedLast Update
0001424KdenliveMLTpublic2010-02-04 21:372010-02-09 10:50
Reporterlmg 
Assigned To 
PriorityhighSeveritycrashReproducibilityrandom
StatusacknowledgedResolutionopen 
Platform32 bit intel and alikeOSUbuntu LinuxOS Version8.10
Product Version0.7.5 
Target VersionFixed in Version 
Summary0001424: Crash when adding a clip into the timeline
Descriptionsegmentation fault and openning of the crash report agent after this action, it was a .ogv file but it has appened before with a .flv one.
Additional Informationsee the kcrash file below
TagsNo tags attached.
Build/Install MethodDistribution package
Attached Filestxt file icon kdenlive-20100204.txt [^] (5,298 bytes) 2010-02-04 21:37 [Show Content]

- Relationships

-  Notes
(0004641)
lmg (reporter)
2010-02-04 21:49

I have succed into reproducing the bug. It come when I upload this video: http://people.mozilla.com/~prouget/demos/resources/videos/tristan2.ogv [^]

I add with "add a clip", drag it to the timeline, and when I click the little green bar on the top to choose the render zone, it crash.
(0004692)
j-b-m (administrator)
2010-02-09 10:50

I can confirm the crash with the file mentioned in the previous comment.
 
 The following command works:
 melt tristan2.ogv
 
 But this one crashes without useful backtrace:
 melt colour:red in=0 out=20 -track tristan2.ogv
 
 I also tried to transcode the ogv file using the "Fix Ogg Theora" transcoding option from Kdenlive, but the crash is still here with transcoded file.
 
 However, the original ogv file somehow seems corrupted (see info about stream #0.0), so maybe the crash is caused by a broken file, more sample videos would be welcome.
 
 FFMpeg reports this about the ogv file (note the broken stream #0):
 
 [theora @ 0x9fee2d0]7 bits left in packet 82
 [ogg @ 0x9fc47e0]max_analyze_duration reached
 Input #0, ogg, from 'tristan2.ogv':
   Metadata:
     ENCODER : ffmpeg2theora 0.21
   Duration: 00:00:24.44, start: 0.000000, bitrate: 459 kb/s
     Stream #0.0: Invalid Codec type -1
     Stream #0.1: Video: theora, yuv420p, 320x192, 59.94 fps, 59.94 tbr, 59.94 tbn, 59.94 tbc
     Stream #0.2: Audio: vorbis, 48000 Hz, stereo, s16, 80 kb/s
 
 
 And here is the FFMpeg info about the transcoded file:
 [theora @ 0x9e12b20]7 bits left in packet 82
 Input #0, ogg, from 'tristan2.ogv.ogv':
   Metadata:
     ENCODER : ffmpeg2theora 0.21
   Duration: 00:00:24.19, start: 0.000000, bitrate: 273 kb/s
     Stream #0.0: Video: theora, yuv420p, 320x192, PAR 1:1 DAR 5:3, 59.94 tbr, 59.94 tbn, 59.94 tbc
     Stream #0.1: Audio: vorbis, 48000 Hz, stereo, s16, 80 kb/s

- Issue History
Date Modified Username Field Change
2010-02-04 21:37 lmg New Issue
2010-02-04 21:37 lmg File Added: kdenlive-20100204.txt
2010-02-04 21:49 lmg Note Added: 0004641
2010-02-09 08:25 j-b-m Category File Loading => MLT
2010-02-09 08:29 j-b-m Note Added: 0004683
2010-02-09 08:29 j-b-m Status new => acknowledged
2010-02-09 08:31 j-b-m Note Edited: 0004683 View Revisions
2010-02-09 08:34 j-b-m Note Edited: 0004683 View Revisions
2010-02-09 10:49 j-b-m Note Deleted: 0004683
2010-02-09 10:50 j-b-m Note Added: 0004692


Copyright © 2000 - 2014 MantisBT Team
Powered by Mantis Bugtracker