Kdenlive   bug tracker Home page

View Issue Details Jump to Notes ] Issue History ] Print ]
IDProjectCategoryView StatusDate SubmittedLast Update
0001826KdenliveEffectspublic2010-09-25 08:382011-03-11 22:34
Reportermcfrisk 
Assigned To 
PrioritynormalSeverityminorReproducibilityunable to reproduce
StatusfeedbackResolutionopen 
Platformx86OSDebian LinuxOS Versionunstable
Product VersionRecent git 
Target VersionFixed in Version 
Summary0001826: Audio track muted by a video clip
DescriptionSometimes in my big project the audio track goes silent if a video clip on a track above it contains audio or is muted.

Project contains five video tracks and a audio track. One video track is used as the second audio track. Audiotracks contain a metronome wav and a drum machine wav.
Sometimes I need to render the project with only metronome track and sometimes with both tracks and due to some bug the metronome track sometimes goes silent due to a video clip above it.

In the attached screen shot the audio track is silent due to the clip above it having
non-muted audio. The video clip contains six channels according to ffmpeg -i, maybe that's part of the problem:

Input #0, mov,mp4,m4a,3gp,3g2,mj2, from './Verbier_2010_tommi/20100130_Bruson_dumppi/00067_mika_metta_aurinko.MTS.dnxhd.mov':
  Metadata:
    major_brand : qt
    minor_version : 512
    compatible_brands: qt
    encoder : Lavf52.51.0
    encoder-eng : Lavf52.51.0
  Duration: 00:00:15.10, start: 0.000000, bitrate: 121499 kb/s
    Stream #0.0(eng): Video: dnxhd, yuv422p, 1920x1080, 121241 kb/s, 25 fps, 25 tbr, 25 tbn, 25 tbc
    Stream #0.1(eng): Audio: ac3, 48000 Hz, 6 channels, s16, 448 kb/s
Steps To ReproduceTried to reproduce on a clean project but failed.
TagsNo tags attached.
Build/Install MethodManual build from SVN
Attached Filespng file icon audio2_track_not_playing.png [^] (38,641 bytes) 2010-09-25 08:38

- Relationships

-  Notes
(0006563)
ttill (developer)
2011-03-11 22:34

Are you still able to reproduce?
A bug related to muted tracks was fixed recently.

- Issue History
Date Modified Username Field Change
2010-09-25 08:38 mcfrisk New Issue
2010-09-25 08:38 mcfrisk File Added: audio2_track_not_playing.png
2011-03-11 22:34 ttill Note Added: 0006563
2011-03-11 22:34 ttill Status new => feedback


Copyright © 2000 - 2014 MantisBT Team
Powered by Mantis Bugtracker