Kdenlive   bug tracker Home page

View Issue Details Jump to Notes ] Issue History ] Print ]
IDProjectCategoryView StatusDate SubmittedLast Update
0001849KdenliveFile Loadingpublic2010-10-19 16:052010-10-22 18:48
Reporterferdez 
Assigned Toj-b-m 
PrioritynormalSeveritycrashReproducibilityalways
StatusassignedResolutionopen 
PlatformIntelOSUbuntu LinuxOS Version10.10 64 bit
Product Version0.7.8 
Target VersionFixed in Version 
Summary0001849: Crash when opening clip (MTS file made with Canon Legria camera)
DescriptionWhenever I try to add this clip it crashes.
Steps To ReproduceOpen app.
Right click to add clip.
Select MTS file
Crash
Additional InformationFile is a bit big (43MB), but I can upload it if you want.
TagsNo tags attached.
Build/Install MethodDistribution package
Attached Files? file icon 20100221163134.MTS [^] (20,600,832 bytes) 2010-10-19 21:06

- Relationships

-  Notes
(0005989)
j-b-m (administrator)
2010-10-19 19:00

Can you please first post the result of the following command in a terminal:

ffmpeg -i yourclip.mts

Then, try playing the clip with melt and ffplay. Does it work?

melt yourclip.mts
ffplay yourclip.mts
(0005990)
ferdez (reporter)
2010-10-19 20:43

$ ffmpeg -i 20100211172908.MTS
FFmpeg version 0.6-4:0.6-2ubuntu6, Copyright (c) 2000-2010 the FFmpeg developers
  built on Oct 5 2010 22:36:53 with gcc 4.4.5
  configuration: --extra-version=4:0.6-2ubuntu6 --prefix=/usr --enable-avfilter --enable-avfilter-lavf --enable-vdpau --enable-bzlib --enable-libgsm --enable-libschroedinger --enable-libspeex --enable-libtheora --enable-libvorbis --enable-vaapi --enable-pthreads --enable-zlib --enable-libvpx --disable-stripping --enable-runtime-cpudetect --enable-gpl --enable-postproc --enable-x11grab --enable-libdc1394 --enable-shared --disable-static
  WARNING: library configuration mismatch
  libavutil configuration: --extra-version=4:0.6-2ubuntu3 --prefix=/usr --enable-avfilter --enable-avfilter-lavf --enable-vdpau --enable-bzlib --enable-libdirac --enable-libgsm --enable-libopenjpeg --enable-libschroedinger --enable-libspeex --enable-libtheora --enable-libvorbis --enable-vaapi --enable-pthreads --enable-zlib --enable-libvpx --disable-stripping --enable-runtime-cpudetect --enable-libmp3lame --enable-gpl --enable-postproc --enable-x11grab --enable-libfaad --enable-libxvid --enable-libx264 --enable-librtmp --enable-libdc1394 --enable-shared --disable-static
  libavcodec configuration: --extra-version=4:0.6-2ubuntu3 --prefix=/usr --enable-avfilter --enable-avfilter-lavf --enable-vdpau --enable-bzlib --enable-libdirac --enable-libgsm --enable-libopenjpeg --enable-libschroedinger --enable-libspeex --enable-libtheora --enable-libvorbis --enable-vaapi --enable-pthreads --enable-zlib --enable-libvpx --disable-stripping --enable-runtime-cpudetect --enable-libmp3lame --enable-gpl --enable-postproc --enable-x11grab --enable-libfaad --enable-libxvid --enable-libx264 --enable-librtmp --enable-libdc1394 --enable-shared --disable-static
  libavformat configuration: --extra-version=4:0.6-2ubuntu3 --prefix=/usr --enable-avfilter --enable-avfilter-lavf --enable-vdpau --enable-bzlib --enable-libdirac --enable-libgsm --enable-libopenjpeg --enable-libschroedinger --enable-libspeex --enable-libtheora --enable-libvorbis --enable-vaapi --enable-pthreads --enable-zlib --enable-libvpx --disable-stripping --enable-runtime-cpudetect --enable-libmp3lame --enable-gpl --enable-postproc --enable-x11grab --enable-libfaad --enable-libxvid --enable-libx264 --enable-librtmp --enable-libdc1394 --enable-shared --disable-static
  libavdevice configuration: --extra-version=4:0.6-2ubuntu3 --prefix=/usr --enable-avfilter --enable-avfilter-lavf --enable-vdpau --enable-bzlib --enable-libdirac --enable-libgsm --enable-libopenjpeg --enable-libschroedinger --enable-libspeex --enable-libtheora --enable-libvorbis --enable-vaapi --enable-pthreads --enable-zlib --enable-libvpx --disable-stripping --enable-runtime-cpudetect --enable-libmp3lame --enable-gpl --enable-postproc --enable-x11grab --enable-libfaad --enable-libxvid --enable-libx264 --enable-librtmp --enable-libdc1394 --enable-shared --disable-static
  libavfilter configuration: --extra-version=4:0.6-2ubuntu3 --prefix=/usr --enable-avfilter --enable-avfilter-lavf --enable-vdpau --enable-bzlib --enable-libdirac --enable-libgsm --enable-libopenjpeg --enable-libschroedinger --enable-libspeex --enable-libtheora --enable-libvorbis --enable-vaapi --enable-pthreads --enable-zlib --enable-libvpx --disable-stripping --enable-runtime-cpudetect --enable-libmp3lame --enable-gpl --enable-postproc --enable-x11grab --enable-libfaad --enable-libxvid --enable-libx264 --enable-librtmp --enable-libdc1394 --enable-shared --disable-static
  libswscale configuration: --extra-version=4:0.6-2ubuntu3 --prefix=/usr --enable-avfilter --enable-avfilter-lavf --enable-vdpau --enable-bzlib --enable-libdirac --enable-libgsm --enable-libopenjpeg --enable-libschroedinger --enable-libspeex --enable-libtheora --enable-libvorbis --enable-vaapi --enable-pthreads --enable-zlib --enable-libvpx --disable-stripping --enable-runtime-cpudetect --enable-libmp3lame --enable-gpl --enable-postproc --enable-x11grab --enable-libfaad --enable-libxvid --enable-libx264 --enable-librtmp --enable-libdc1394 --enable-shared --disable-static
  libpostproc configuration: --extra-version=4:0.6-2ubuntu3 --prefix=/usr --enable-avfilter --enable-avfilter-lavf --enable-vdpau --enable-bzlib --enable-libdirac --enable-libgsm --enable-libopenjpeg --enable-libschroedinger --enable-libspeex --enable-libtheora --enable-libvorbis --enable-vaapi --enable-pthreads --enable-zlib --enable-libvpx --disable-stripping --enable-runtime-cpudetect --enable-libmp3lame --enable-gpl --enable-postproc --enable-x11grab --enable-libfaad --enable-libxvid --enable-libx264 --enable-librtmp --enable-libdc1394 --enable-shared --disable-static
  libavutil 50.15. 1 / 50.15. 1
  libavcodec 52.72. 2 / 52.72. 2
  libavformat 52.64. 2 / 52.64. 2
  libavdevice 52. 2. 0 / 52. 2. 0
  libavfilter 1.19. 0 / 1.19. 0
  libswscale 0.11. 0 / 0.11. 0
  libpostproc 51. 2. 0 / 51. 2. 0

Seems stream 0 codec frame rate differs from container frame rate: 50.00 (50/1) -> 50.00 (50/1)
Input #0, mpegts, from '20100211172908.MTS':
  Duration: 00:00:14.40, start: 0.466167, bitrate: 24074 kb/s
  Program 1
    Stream #0.0[0x1011]: Video: h264, yuv420p, 1920x1080 [PAR 1:1 DAR 16:9], 50 fps, 50 tbr, 90k tbn, 50 tbc
    Stream #0.1[0x1100]: Audio: ac3, 48000 Hz, stereo, s16, 256 kb/s
At least one output file must be specified
(0005991)
ferdez (reporter)
2010-10-19 20:50

ffplay plays the video with many lost frames and hang in a continuous loop:

$ ffplay 20100211172908.MTS
FFplay version 0.6-4:0.6-2ubuntu6, Copyright (c) 2003-2010 the FFmpeg developers
  built on Oct 5 2010 22:36:53 with gcc 4.4.5
  configuration: --extra-version=4:0.6-2ubuntu6 --prefix=/usr --enable-avfilter --enable-avfilter-lavf --enable-vdpau --enable-bzlib --enable-libgsm --enable-libschroedinger --enable-libspeex --enable-libtheora --enable-libvorbis --enable-vaapi --enable-pthreads --enable-zlib --enable-libvpx --disable-stripping --enable-runtime-cpudetect --enable-gpl --enable-postproc --enable-x11grab --enable-libdc1394 --enable-shared --disable-static
  WARNING: library configuration mismatch
  libavutil configuration: --extra-version=4:0.6-2ubuntu3 --prefix=/usr --enable-avfilter --enable-avfilter-lavf --enable-vdpau --enable-bzlib --enable-libdirac --enable-libgsm --enable-libopenjpeg --enable-libschroedinger --enable-libspeex --enable-libtheora --enable-libvorbis --enable-vaapi --enable-pthreads --enable-zlib --enable-libvpx --disable-stripping --enable-runtime-cpudetect --enable-libmp3lame --enable-gpl --enable-postproc --enable-x11grab --enable-libfaad --enable-libxvid --enable-libx264 --enable-librtmp --enable-libdc1394 --enable-shared --disable-static
  libavcodec configuration: --extra-version=4:0.6-2ubuntu3 --prefix=/usr --enable-avfilter --enable-avfilter-lavf --enable-vdpau --enable-bzlib --enable-libdirac --enable-libgsm --enable-libopenjpeg --enable-libschroedinger --enable-libspeex --enable-libtheora --enable-libvorbis --enable-vaapi --enable-pthreads --enable-zlib --enable-libvpx --disable-stripping --enable-runtime-cpudetect --enable-libmp3lame --enable-gpl --enable-postproc --enable-x11grab --enable-libfaad --enable-libxvid --enable-libx264 --enable-librtmp --enable-libdc1394 --enable-shared --disable-static
  libavformat configuration: --extra-version=4:0.6-2ubuntu3 --prefix=/usr --enable-avfilter --enable-avfilter-lavf --enable-vdpau --enable-bzlib --enable-libdirac --enable-libgsm --enable-libopenjpeg --enable-libschroedinger --enable-libspeex --enable-libtheora --enable-libvorbis --enable-vaapi --enable-pthreads --enable-zlib --enable-libvpx --disable-stripping --enable-runtime-cpudetect --enable-libmp3lame --enable-gpl --enable-postproc --enable-x11grab --enable-libfaad --enable-libxvid --enable-libx264 --enable-librtmp --enable-libdc1394 --enable-shared --disable-static
  libavdevice configuration: --extra-version=4:0.6-2ubuntu3 --prefix=/usr --enable-avfilter --enable-avfilter-lavf --enable-vdpau --enable-bzlib --enable-libdirac --enable-libgsm --enable-libopenjpeg --enable-libschroedinger --enable-libspeex --enable-libtheora --enable-libvorbis --enable-vaapi --enable-pthreads --enable-zlib --enable-libvpx --disable-stripping --enable-runtime-cpudetect --enable-libmp3lame --enable-gpl --enable-postproc --enable-x11grab --enable-libfaad --enable-libxvid --enable-libx264 --enable-librtmp --enable-libdc1394 --enable-shared --disable-static
  libavfilter configuration: --extra-version=4:0.6-2ubuntu3 --prefix=/usr --enable-avfilter --enable-avfilter-lavf --enable-vdpau --enable-bzlib --enable-libdirac --enable-libgsm --enable-libopenjpeg --enable-libschroedinger --enable-libspeex --enable-libtheora --enable-libvorbis --enable-vaapi --enable-pthreads --enable-zlib --enable-libvpx --disable-stripping --enable-runtime-cpudetect --enable-libmp3lame --enable-gpl --enable-postproc --enable-x11grab --enable-libfaad --enable-libxvid --enable-libx264 --enable-librtmp --enable-libdc1394 --enable-shared --disable-static
  libswscale configuration: --extra-version=4:0.6-2ubuntu3 --prefix=/usr --enable-avfilter --enable-avfilter-lavf --enable-vdpau --enable-bzlib --enable-libdirac --enable-libgsm --enable-libopenjpeg --enable-libschroedinger --enable-libspeex --enable-libtheora --enable-libvorbis --enable-vaapi --enable-pthreads --enable-zlib --enable-libvpx --disable-stripping --enable-runtime-cpudetect --enable-libmp3lame --enable-gpl --enable-postproc --enable-x11grab --enable-libfaad --enable-libxvid --enable-libx264 --enable-librtmp --enable-libdc1394 --enable-shared --disable-static
  libpostproc configuration: --extra-version=4:0.6-2ubuntu3 --prefix=/usr --enable-avfilter --enable-avfilter-lavf --enable-vdpau --enable-bzlib --enable-libdirac --enable-libgsm --enable-libopenjpeg --enable-libschroedinger --enable-libspeex --enable-libtheora --enable-libvorbis --enable-vaapi --enable-pthreads --enable-zlib --enable-libvpx --disable-stripping --enable-runtime-cpudetect --enable-libmp3lame --enable-gpl --enable-postproc --enable-x11grab --enable-libfaad --enable-libxvid --enable-libx264 --enable-librtmp --enable-libdc1394 --enable-shared --disable-static
  libavutil 50.15. 1 / 50.15. 1
  libavcodec 52.72. 2 / 52.72. 2
  libavformat 52.64. 2 / 52.64. 2
  libavdevice 52. 2. 0 / 52. 2. 0
  libavfilter 1.19. 0 / 1.19. 0
  libswscale 0.11. 0 / 0.11. 0
  libpostproc 51. 2. 0 / 51. 2. 0
Input #0, mpegts, from '20100211172908.MTS':
  Duration: 00:00:14.40, start: 0.466167, bitrate: 24074 kb/s
  Program 1
    Stream #0.0[0x1011]: Video: h264, yuv420p, 1920x1080 [PAR 1:1 DAR 16:9], 50 fps, 50 tbr, 90k tbn, 50 tbc
    Stream #0.1[0x1100]: Audio: ac3, 48000 Hz, stereo, s16, 256 kb/s
^C14.91 A-V:-15.538 s:15.1 aq= 0KB vq= 0KB sq= 0B f=0/356 /0
(0005992)
ferdez (reporter)
2010-10-19 20:52

melt play the file reasonably well, although with wrong colors:

melt 20100211172908.MTS
+-----+ +-----+ +-----+ +-----+ +-----+ +-----+ +-----+ +-----+ +-----+
|1=-10| |2= -5| |3= -2| |4= -1| |5= 0| |6= 1| |7= 2| |8= 5| |9= 10|
+-----+ +-----+ +-----+ +-----+ +-----+ +-----+ +-----+ +-----+ +-----+
+---------------------------------------------------------------------+
| H = back 1 minute, L = forward 1 minute |
| h = previous frame, l = next frame |
| g = start of clip, j = next clip, k = previous clip |
| 0 = restart, q = quit, space = play |
+---------------------------------------------------------------------+
Diverting av_*_packet function calls to libavcodec. Recompile to improve performance
    Last message repeated 533 times
[h264 @ 0x1fcf250]missing picture in access unit
Diverting av_*_packet function calls to libavcodec. Recompile to improve performance
    Last message repeated 1 times
[h264 @ 0x1fcf250]missing picture in access unit
Diverting av_*_packet function calls to libavcodec. Recompile to improve performance
[NULL @ 0x1fd14e0]missing picture in access unit
Current Position: 359
(0005994)
ferdez (reporter)
2010-10-19 21:07

I just attached a smaller movie file that can be used to reproduce the problem.
(0005995)
j-b-m (administrator)
2010-10-19 21:32

File works fine for me with recent FFmpeg svn and latest MLT from git. So I think the issue was probably fixed recently...
(0005999)
ferdez (reporter)
2010-10-22 18:48

OK. Thanks.

- Issue History
Date Modified Username Field Change
2010-10-19 16:05 ferdez New Issue
2010-10-19 19:00 j-b-m Note Added: 0005989
2010-10-19 19:00 j-b-m Assigned To => j-b-m
2010-10-19 19:00 j-b-m Status new => feedback
2010-10-19 20:43 ferdez Note Added: 0005990
2010-10-19 20:43 ferdez Status feedback => assigned
2010-10-19 20:50 ferdez Note Added: 0005991
2010-10-19 20:52 ferdez Note Added: 0005992
2010-10-19 21:06 ferdez File Added: 20100221163134.MTS
2010-10-19 21:07 ferdez Note Added: 0005994
2010-10-19 21:32 j-b-m Note Added: 0005995
2010-10-22 18:48 ferdez Note Added: 0005999


Copyright © 2000 - 2014 MantisBT Team
Powered by Mantis Bugtracker