Kdenlive   bug tracker Home page

View Issue Details Jump to Notes ] Issue History ] Print ]
IDProjectCategoryView StatusDate SubmittedLast Update
0001974KdenliveUser Interfacepublic2011-01-08 18:552011-01-14 17:30
ReporterJoBe52 
Assigned To 
PrioritynormalSeveritymajorReproducibilityalways
StatusnewResolutionopen 
Platform64 bit AMDOSOpenSUSEOS Version11.3
Product Version0.7.8 
Target VersionFixed in Version 
Summary0001974: Timeline messed up after upgrade
DescriptionAfter upgrading from 0.7.7.1 to 0.7.8 my project timeline was messed up.
Most of the clips behind 0000014:0000025:00 have been moved back and forth.
Several days work was lost.
Even the rearranging does not work properly.
After 5 to 10 movements at the timeline the clips are blocked. I can't move or delete them. I have to restart the program and this takes every time 25 min. This is very annoying.
TagsNo tags attached.
Build/Install Method3rd party package
Attached Files

- Relationships

-  Notes
(0006320)
JoBe52 (reporter)
2011-01-14 17:30

This is the output from ffmpeg -i for one of the clips

FFmpeg version SVN-r25702, Copyright (c) 2000-2010 the FFmpeg developers
  built on Dec 15 2010 22:44:03 with gcc 4.5.0 20100604 [gcc-4_5-branch revision 160292]
  configuration: --shlibdir=/usr/lib64 --prefix=/usr --mandir=/usr/share/man --libdir=/usr/lib64 --enable-shared --enable-libmp3lame --enable-libvorbis --enable-libtheora --enable-libspeex --enable-libxvid --enable-postproc --enable-gpl --enable-x11grab --extra-cflags='-fmessage-length=0 -O2 -Wall -D_FORTIFY_SOURCE=2 -fstack-protector -funwind-tables -fasynchronous-unwind-tables -fPIC -I/usr/include/gsm' --enable-debug --disable-stripping --enable-libschroedinger --enable-libdirac --enable-libgsm --enable-avfilter --enable-libvpx --enable-version3 --enable-libopencore-amrnb --enable-libopencore-amrwb --enable-libx264 --enable-libdc1394 --enable-pthreads
  libavutil 50.32. 6 / 50.32. 6
  libavcore 0.12. 0 / 0.12. 0
  libavcodec 52.94. 3 / 52.94. 3
  libavformat 52.84. 0 / 52.84. 0
  libavdevice 52. 2. 2 / 52. 2. 2
  libavfilter 1.57. 0 / 1.57. 0
  libswscale 0.12. 0 / 0.12. 0
  libpostproc 51. 2. 0 / 51. 2. 0
Input #0, avi, from 'Hurtig205.avi':
  Duration: 00:00:04.08, start: 0.000000, bitrate: 31035 kb/s
    Stream #0.0: Video: dvvideo, yuv420p, 720x576 [PAR 64:45 DAR 16:9], 25 tbr, 25 tbn, 25 tbc
    Stream #0.1: Audio: pcm_s16le, 48000 Hz, 2 channels, s16, 1536 kb/s
At least one output file must be specified

- Issue History
Date Modified Username Field Change
2011-01-08 18:55 JoBe52 New Issue
2011-01-14 17:30 JoBe52 Note Added: 0006320


Copyright © 2000 - 2014 MantisBT Team
Powered by Mantis Bugtracker