Kdenlive   bug tracker Home page

View Issue Details Jump to Notes ] Issue History ] Print ]
IDProjectCategoryView StatusDate SubmittedLast Update
0002255KdenliveUser Interfacepublic2011-07-24 19:202011-07-24 19:23
Reporterigloo 
Assigned To 
PriorityhighSeveritymajorReproducibilityalways
StatusnewResolutionopen 
Platformamd64OSDebian LinuxOS Versionunstable
Product VersionRecent git 
Target VersionFixed in Version 
Summary0002255: problems with clips with "Duration: N/A"
Description
When I load the attached project file, I see a load of clips on video track 1, but when I click anywhere on the timeline the cursor jumps to the start as if there were no clips. If I try to play the project then nothing happens. The horizontal timeline scrollbar thinks there is only about 00:04:32:33 of content, but when fully zoomed out it goes past 01:06:40:00.

When creating it, I believe I tried to drag all the clips onto the timeline, but it looks like only the first few made it onto there.

Ah, looks like the problem is that kdenlive thinks that the last clip on the timeline is 11930:27:52:47 long (I make that 2^32 / 100 seconds).

I've put the ffprobe output in the additional info. Note the duration is N/A for some reason. I've also included the output for another clip from the camera, which works fine. The problematic clip is not particularly long (around 65 seconds).

I have r5803.
Additional Information$ ffprobe 00022.MTS
ffprobe version git-N-30047-g3c7650a, Copyright (c) 2007-2011 the FFmpeg developers
  built on May 19 2011 14:24:20 with gcc 4.6.1 20110507 (prerelease)
  configuration: --prefix=/home/ian/code/ffmpeg/inst --enable-gpl --enable-version3 --enable-postproc --enable-swscale --enable-x11grab --enable-avfilter --enable-vdpau --enable-bzlib --enable-libgsm --enable-libschroedinger --enable-libspeex --enable-libtheora --enable-libvorbis --enable-pthreads --enable-zlib --enable-libvpx --enable-frei0r --enable-shared --enable-nonfree --enable-libdc1394 --enable-libdirac --enable-libfreetype --enable-libopenjpeg --enable-librtmp --enable-libx264
  libavutil 51. 2. 1 / 51. 2. 1
  libavcodec 53. 6. 0 / 53. 6. 0
  libavformat 53. 1. 0 / 53. 1. 0
  libavdevice 53. 0. 0 / 53. 0. 0
  libavfilter 2. 5. 0 / 2. 5. 0
  libswscale 0. 14. 0 / 0. 14. 0
  libpostproc 51. 2. 0 / 51. 2. 0
[mpegts @ 0x1700780] max resync size reached, could not find sync byte
[mpegts @ 0x1700780] max resync size reached, could not find sync byte
[mpegts @ 0x1700780] max resync size reached, could not find sync byte
[mpegts @ 0x1700780] max resync size reached, could not find sync byte
[mpegts @ 0x1700780] max resync size reached, could not find sync byte
[mpegts @ 0x1700780] max resync size reached, could not find sync byte
[mpegts @ 0x1700780] max resync size reached, could not find sync byte
[mpegts @ 0x1700780] max resync size reached, could not find sync byte
[mpegts @ 0x1700780] max resync size reached, could not find sync byte
[mpegts @ 0x1700780] max resync size reached, could not find sync byte
[mpegts @ 0x1700780] max resync size reached, could not find sync byte
[mpegts @ 0x1700780] max resync size reached, could not find sync byte
[mpegts @ 0x1700780] max resync size reached, could not find sync byte
[mpegts @ 0x1700780] max resync size reached, could not find sync byte
[mpegts @ 0x1700780] max resync size reached, could not find sync byte
[mpegts @ 0x1700780] max resync size reached, could not find sync byte
[mpegts @ 0x1700780] max resync size reached, could not find sync byte
[mpegts @ 0x1700780] max resync size reached, could not find sync byte
[mpegts @ 0x1700780] max resync size reached, could not find sync byte
[mpegts @ 0x1700780] max resync size reached, could not find sync byte
[mpegts @ 0x1700780] max resync size reached, could not find sync byte
[mpegts @ 0x1700780] max resync size reached, could not find sync byte
[mpegts @ 0x1700780] max resync size reached, could not find sync byte
[mpegts @ 0x1700780] max resync size reached, could not find sync byte
[mpegts @ 0x1700780] max resync size reached, could not find sync byte
[mpegts @ 0x1700780] max resync size reached, could not find sync byte
[mpegts @ 0x1700780] max resync size reached, could not find sync byte
[mpegts @ 0x1700780] max resync size reached, could not find sync byte
[mpegts @ 0x1700780] max resync size reached, could not find sync byte
[mpegts @ 0x1700780] max resync size reached, could not find sync byte
[mpegts @ 0x1700780] max resync size reached, could not find sync byte
[mpegts @ 0x1700780] max resync size reached, could not find sync byte
[mpegts @ 0x1700780] max resync size reached, could not find sync byte
[mpegts @ 0x1700780] max resync size reached, could not find sync byte
[mpegts @ 0x1700780] max resync size reached, could not find sync byte
[mpegts @ 0x1700780] max resync size reached, could not find sync byte
[mpegts @ 0x1700780] max resync size reached, could not find sync byte
[mpegts @ 0x1700780] max resync size reached, could not find sync byte
[mpegts @ 0x1700780] max resync size reached, could not find sync byte
[mpegts @ 0x1700780] max resync size reached, could not find sync byte
[mpegts @ 0x1700780] max resync size reached, could not find sync byte
[mpegts @ 0x1700780] max resync size reached, could not find sync byte
[mpegts @ 0x1700780] max resync size reached, could not find sync byte
[mpegts @ 0x1700780] max resync size reached, could not find sync byte
[mpegts @ 0x1700780] max resync size reached, could not find sync byte
[mpegts @ 0x1700780] max resync size reached, could not find sync byte
[mpegts @ 0x1700780] max resync size reached, could not find sync byte
[mpegts @ 0x1700780] max resync size reached, could not find sync byte
[mpegts @ 0x1700780] max resync size reached, could not find sync byte
[mpegts @ 0x1700780] max resync size reached, could not find sync byte
[mpegts @ 0x1700780] max resync size reached, could not find sync byte
[mpegts @ 0x1700780] max resync size reached, could not find sync byte
[mpegts @ 0x1700780] max resync size reached, could not find sync byte
[mpegts @ 0x1700780] max resync size reached, could not find sync byte
[mpegts @ 0x1700780] max resync size reached, could not find sync byte
Input #0, mpegts, from '00022.MTS':
  Duration: N/A, start: 0.522700, bitrate: N/A
  Program 1
    Stream #0.0[0x1011]: Video: h264 (High), yuv420p, 1920x1080 [PAR 1:1 DAR 16:9], 50 fps, 50 tbr, 90k tbn, 100 tbc
    Stream #0.1[0x1100]: Audio: ac3, 48000 Hz, stereo, s16, 256 kb/s
    Stream #0.2[0x1200]: Subtitle: pgssub



$ ffprobe 00021.MTS
ffprobe version git-N-30047-g3c7650a, Copyright (c) 2007-2011 the FFmpeg developers
  built on May 19 2011 14:24:20 with gcc 4.6.1 20110507 (prerelease)
  configuration: --prefix=/home/ian/code/ffmpeg/inst --enable-gpl --enable-version3 --enable-postproc --enable-swscale --enable-x11grab --enable-avfilter --enable-vdpau --enable-bzlib --enable-libgsm --enable-libschroedinger --enable-libspeex --enable-libtheora --enable-libvorbis --enable-pthreads --enable-zlib --enable-libvpx --enable-frei0r --enable-shared --enable-nonfree --enable-libdc1394 --enable-libdirac --enable-libfreetype --enable-libopenjpeg --enable-librtmp --enable-libx264
  libavutil 51. 2. 1 / 51. 2. 1
  libavcodec 53. 6. 0 / 53. 6. 0
  libavformat 53. 1. 0 / 53. 1. 0
  libavdevice 53. 0. 0 / 53. 0. 0
  libavfilter 2. 5. 0 / 2. 5. 0
  libswscale 0. 14. 0 / 0. 14. 0
  libpostproc 51. 2. 0 / 51. 2. 0
[mpegts @ 0x8f7780] max resync size reached, could not find sync byte
[mpegts @ 0x8f7780] max resync size reached, could not find sync byte
[mpegts @ 0x8f7780] max resync size reached, could not find sync byte
Input #0, mpegts, from '00021.MTS':
  Duration: 00:01:19.21, start: 0.522100, bitrate: 25653 kb/s
  Program 1
    Stream #0.0[0x1011]: Video: h264 (High), yuv420p, 1920x1080 [PAR 1:1 DAR 16:9], 50 fps, 50 tbr, 90k tbn, 100 tbc
    Stream #0.1[0x1100]: Audio: ac3, 48000 Hz, stereo, s16, 256 kb/s
    Stream #0.2[0x1200]: Subtitle: pgssub
TagsNo tags attached.
Build/Install MethodManual build from SVN
Attached Files? file icon train.kdenlive [^] (289,560 bytes) 2011-07-24 19:20

- Relationships

-  Notes
(0007092)
igloo (reporter)
2011-07-24 19:23

Oh, priority/severity aren't as high for me now that I've worked out what the cause was.

- Issue History
Date Modified Username Field Change
2011-07-24 19:20 igloo New Issue
2011-07-24 19:20 igloo File Added: train.kdenlive
2011-07-24 19:23 igloo Note Added: 0007092


Copyright © 2000 - 2014 MantisBT Team
Powered by Mantis Bugtracker