Kdenlive   bug tracker Home page

View Issue Details Jump to Notes ] Issue History ] Print ]
IDProjectCategoryView StatusDate SubmittedLast Update
0003176KdenliveCapturepublic2013-10-14 23:452014-08-05 15:31
Reporterjdmeissner 
Assigned Tovpinon 
PrioritynormalSeveritycrashReproducibilityalways
StatusresolvedResolutionfixed 
PlatformOSFedora LinuxOS Version19
Product Version0.9.6 
Target VersionFixed in Version0.9.8 
Summary0003176: Capture crashed, please check your parameters
DescriptionI have not been successful with the screen capture function. Just updated Fedora from 17 to 19 to get the benefit of kdenlive 0.9.6. (The old version had 0.9.2 using recordMyDesktop, which also did not work.) Regardless of settings I get the message "Capture crashed, please check your parameters", and a capturexxxx.mkv file is being generated which is 39768 hours
Steps To Reproducehappens with all settings, with or without audio. Choices are x246 mute or x246 with audio.
Additional InformationLog: ffmpeg version 1.2.4 Copyright (c) 2000-2013 the FFmpeg developers built on Oct 8 2013 20:53:58 with gcc 4.8.1 (GCC) 20130603 (Red Hat 4.8.1-1) configuration: --prefix=/usr --bindir=/usr/bin --datadir=/usr/share/ffmpeg --incdir=/usr/include/ffmpeg --libdir=/usr/lib64 --mandir=/usr/share/man --arch=x86_64 --optflags='-O2 -g -pipe -Wall -Wp,-D_FORTIFY_SOURCE=2 -fexceptions -fstack-protector --param=ssp-buffer-size=4 -grecord-gcc-switches -m64 -mtune=generic' --enable-bzlib --disable-crystalhd --enable-frei0r --enable-gnutls --enable-libass --enable-libcelt --enable-libdc1394 --disable-indev=jack --enable-libfreetype --enable-libgsm --enable-libmp3lame --enable-openal --enable-libopencv --enable-libopenjpeg --enable-libopus --enable-libpulse --enable-libschroedinger --enable-libspeex --enable-libtheora --enable-libvorbis --enable-libv4l2 --enable-libvpx --enable-libx264 --enable-libxvid --enable-x11grab --enable-avfilter --enable-postproc --enable-pthreads --disable-static --enable-shared --enable-gpl --disable-debug --disable-stripping --shlibdir=/usr/lib64 --enable-runtime-cpudetect libavutil 52. 18.100 / 52. 18.100 libavcodec 54. 92.100 / 54. 92.100 libavformat 54. 63.104 / 54. 63.104 libavdevice 54. 3.103 / 54. 3.103 libavfilter 3. 42.103 / 3. 42.103 libswscale 2. 2.100 / 2. 2.100 libswresample 0. 17.102 / 0. 17.102 libpostproc 52. 2.100 / 52. 2.100
[x11grab @ 0x1667940]
device: :0.0 -> display: :0.0 x: 0 y: 0 width: 1680 height: 1050
[x11grab @ 0x1667940]
shared memory extension found
[x11grab @ 0x1667940]
Estimating duration from bitrate, this may be inaccurate
Input #0, x11grab, from ':0.0':
Duration:
N/A
, start:
1381785527.501694
, bitrate:
846720 kb/s

Stream #0:0
: Video: rawvideo (BGR[0] / 0x524742), bgr0, 1680x1050, 846720 kb/s
, 15 tbr
, 1000k tbn
, 15 tbc

[libx264 @ 0x1679d80]
using cpu capabilities: MMX2 SSE2Slow SlowCTZ
[libx264 @ 0x1679d80]
profile High 4:4:4 Predictive, level 4.0, 4:4:4 8-bit
[libx264 @ 0x1679d80]
264 - core 130 r2282 1db4621 - H.264/MPEG-4 AVC codec - Copyleft 2003-2013 - http://www.videolan.org/x264.html [^] - options: cabac=1 ref=2 deblock=1:0:0 analyse=0x3:0x113 me=hex subme=6 psy=1 psy_rd=1.00:0.00 mixed_ref=1 me_range=16 chroma_me=1 trellis=1 8x8dct=1 cqm=0 deadzone=21,11 fast_pskip=1 chroma_qp_offset=4 threads=1 lookahead_threads=1 sliced_threads=0 nr=0 decimate=1 interlaced=0 bluray_compat=0 constrained_intra=0 bframes=3 b_pyramid=2 b_adapt=1 b_bias=0 direct=1 weightb=1 open_gop=0 weightp=1 keyint=250 keyint_min=15 scenecut=40 intra_refresh=0 rc_lookahead=30 rc=crf mbtree=1 crf=23.0 qcomp=0.60 qpmin=0 qpmax=69 qpstep=4 ip_ratio=1.40 aq=1:1.00
Output #0, matroska, to '/home/jdm/screencast1/capture0004.mkv':
Metadata:
encoder :
Lavf54.63.104

Stream #0:0
: Video: h264 (H264 / 0x34363248), yuv444p, 1680x1050, q=-1--1
, 1k tbn
, 15 tbc

Stream mapping:
Stream #0:0 -> #0:0
(rawvideo -> libx264)

Press [q] to stop, [?] for help
frame= 9 fps=0.0 q=0.0 size= 1kB time=00:00:00.00 bitrate=N/A
frame= 17 fps= 16 q=0.0 size= 1kB time=00:00:00.00 bitrate=N/A
frame= 24 fps= 15 q=0.0 size= 1kB time=00:00:00.00 bitrate=N/A
frame= 32 fps= 16 q=27.0 size= 129kB time=00:00:00.-6 bitrate=N/A
frame= 33 fps= 12 q=27.0 size= 129kB time=00:00:00.00 bitrate=N/A
frame= 35 fps= 10 q=27.0 size= 161kB time=00:00:00.13 bitrate=9814.9kbits/s
frame= 38 fps=9.3 q=27.0 size= 161kB time=00:00:00.33 bitrate=3937.7kbits/s
frame= 40 fps=8.6 q=27.0 size= 161kB time=00:00:00.46 bitrate=2816.3kbits/s
frame= 42 fps=7.3 q=27.0 size= 161kB time=00:00:00.59 bitrate=2195.6kbits/s
frame= 43 fps=6.5 q=27.0 size= 161kB time=00:00:00.66 bitrate=1971.8kbits/s
frame= 44 fps=6.1 q=27.0 size= 161kB time=00:00:00.73 bitrate=1791.8kbits/s
frame= 46 fps=5.9 q=27.0 size= 161kB time=00:00:00.86 bitrate=1516.9kbits/s
frame= 49 fps=5.8 q=27.0 size= 161kB time=00:00:01.06 bitrate=1232.6kbits/s
frame= 51 fps=5.6 q=27.0 size= 161kB time=00:00:01.19 bitrate=1096.9kbits/s
TagsNo tags attached.
Build/Install MethodDistribution package
Attached Files

- Relationships

-  Notes
(0009620)
ttguy (updater)
2013-10-18 13:34

duplicate of http://www.kdenlive.org/mantis/view.php?id=2643 [^] ?
(0010176)
vpinon (administrator)
2014-08-05 15:31

bug was fixed in 0.9.8, thanks for the report

- Issue History
Date Modified Username Field Change
2013-10-14 23:45 jdmeissner New Issue
2013-10-18 13:34 ttguy Note Added: 0009620
2014-08-05 15:31 vpinon Note Added: 0010176
2014-08-05 15:31 vpinon Status new => resolved
2014-08-05 15:31 vpinon Fixed in Version => 0.9.8
2014-08-05 15:31 vpinon Resolution open => fixed
2014-08-05 15:31 vpinon Assigned To => vpinon


Copyright © 2000 - 2014 MantisBT Team
Powered by Mantis Bugtracker