Kdenlive   bug tracker Home page

View Issue Details Jump to Notes ] Issue History ] Print ]
IDProjectCategoryView StatusDate SubmittedLast Update
0000347KdenliveFile Loadingpublic2008-11-13 15:442008-12-29 15:37
Reporterelhoir 
Assigned Toddennedy 
PrioritynormalSeverityminorReproducibilityalways
StatusclosedResolutionfixed 
PlatformOSOS Version
Product Version0.7.0 
Target Version0.7.1Fixed in Version0.7.1 
Summary0000347: crash while adding a .flv file
Descriptionkdenlive crashed when adding a .flv (flash) video file
TagsNo tags attached.
Build/Install Method
Attached Filestxt file icon kdenlive_crash_flv.txt [^] (14,438 bytes) 2008-11-13 15:44 [Show Content]

- Relationships

-  Notes
(0001176)
ddennedy (developer)
2008-11-13 18:54

Works here. Some questions...
Do other video formats load into kdenlive?
Does it play with 'inigo'?
Does it play with 'ffplay'?
Why are you trying to edit a crappy FLV? ;-P

Send the output of 'ffmpeg -i your.flv' Thanks
(0001178)
elhoir (reporter)
2008-11-13 19:12

Seems stream 0 codec frame rate differs from container frame rate: 1000.00 (1000/1) -> 30.00 (30/1)
Input #0, flv, from 'gfdgfg.flv':
  Duration: 00:06:27.3, start: 0.000000, bitrate: 32 kb/s
    Stream #0.0: Video: vp6f, yuv420p, 320x240 [PAR 0:1 DAR 0:1], 30.00 tb(r)
    Stream #0.1: Audio: mp3, 22050 Hz, stereo, 32 kb/s
Must supply at least one output file

other video formats does load, yes

"Why are you trying to edit a crappy FLV? ;-P" just for testing and fun :-P

"Does it play with 'inigo'?
Does it play with 'ffplay'?" <---- what?? i use VLC to play them, they work with Totem too
(0001179)
ddennedy (developer)
2008-11-13 19:36

> what?? i use VLC to play them, they work with Totem too

That does not help. You need to test it with MLT's inigo and FFmpeg's ffplay to help isolate the problem. You probably used the kdenlive builder wizard. In that case, open a konsole and go to where you installed it and 'source kdenlive_env'. Now you should find that inigo and ffplay based on the wizard's builds of ff,pegg and MLT are in your path.

Also, you can try to attach the file here.
(0001184)
ddennedy (developer)
2008-11-14 00:00

fixed in MLT SVN r1237
(0001187)
cinephiliac (updater)
2008-11-14 07:44

Hi Elhoir,

Can you update your Kdenlive installation (by running the Kdenlive Builder Wizard again) and let us know here if ddennedy's fix has worked for you?

Cheers

Cinephiliac
(0001214)
elhoir (reporter)
2008-11-14 11:25

running wizard right now
(0001215)
elhoir (reporter)
2008-11-14 11:40

yeah, i can load .flv files now, it is fixed for me
thanks!
(0001223)
ddennedy (developer)
2008-11-16 07:59

Actually, it is fixed in MLT SVN trunk.
(0001234)
madsdyd (administrator)
2008-11-17 21:59

Setting target version to 0.7.1. This is sort of test of wheter it makes sense or not to set the target version on resolved bugs.

- Issue History
Date Modified Username Field Change
2008-11-13 15:44 elhoir New Issue
2008-11-13 15:44 elhoir File Added: kdenlive_crash_flv.txt
2008-11-13 18:54 ddennedy Note Added: 0001176
2008-11-13 19:12 elhoir Note Added: 0001178
2008-11-13 19:36 ddennedy Note Added: 0001179
2008-11-14 00:00 ddennedy Note Added: 0001184
2008-11-14 07:44 cinephiliac Note Added: 0001187
2008-11-14 07:44 cinephiliac Status new => feedback
2008-11-14 11:25 elhoir Note Added: 0001214
2008-11-14 11:40 elhoir Note Added: 0001215
2008-11-16 07:59 ddennedy Note Added: 0001223
2008-11-16 07:59 ddennedy Status feedback => resolved
2008-11-16 07:59 ddennedy Fixed in Version => Recent git
2008-11-16 07:59 ddennedy Resolution open => fixed
2008-11-16 07:59 ddennedy Assigned To => ddennedy
2008-11-17 21:59 madsdyd Note Added: 0001234
2008-11-17 21:59 madsdyd Target Version => 0.7.1
2008-12-29 15:36 madsdyd Fixed in Version Recent git => 0.7.1
2008-12-29 15:37 madsdyd Status resolved => closed


Copyright © 2000 - 2014 MantisBT Team
Powered by Mantis Bugtracker