Format pour youtube très lourd

Bonjour à tous,

J'arrive sur ce site pour une question de taille de fichier.

jusqu'à hier 15h j'utilisais Kdenlive des dépot Ubuntu 10.10, depuis j'utilise les dépôts officiels de ce site.

Mon problème est le suivant, j'ai réalisé un petit montage qui rendu pour youtube me donnait un fichier mp4 de 47mb ( pour 8 min de film)

Depuis ma modification de version, le même scénario me donne un fichier de 180 mb.

Pourriez-vous m'indiquer si cela est normal, et si je veux revenir à un format léger, ce que je dois introduire comme paramètres...

Je vous remercie d'avance

Quel profil utilisez vous exactement pour le rendu? Dans la version 0.8 et précédentes, il y avait plusieurs profils mpeg4 avec des bitrate différents (ce qui veut dire une qualité - donc une taille de fichier - différente).

Dans la version 0.8.2, il n'y a plus qu'un seul profile mpeg4, avec une liste déroulante permettant de choisir le bitrate... donc peut-être faut-il adapter le bitrate à la qualité / taille souhaitée...

j'utilise la cible site web et la j'opte pour un youtube 640x480

est-ce un mauvais choix?

Je viens de faire un essai avec ce profil et j'obtiens un fichier de 10mb pour 2 minutes, donc pour 8 minutes, une taille de 47mb me semble effectivement correcte.

Pouvez-vous poster le résultat de cette commande sur le fichier créé de 180 mb:

ffmpeg -i mongrosfichier.mp4

voici :
Input #0, mov,mp4,m4a,3gp,3g2,mj2, from 'haloween6.mp4':
Metadata:
major_brand : isom
minor_version : 512
compatible_brands: isomiso2avc1mp41
encoder : Lavf52.64.2
Duration: 00:08:15.04, start: 0.000000, bitrate: 3113 kb/s
Stream #0.0(und): Video: h264, yuv420p, 640x480 [PAR 4:3 DAR 16:9], 2981 kb/s, PAR 853:640 DAR 853:480, 25 fps, 25 tbr, 25 tbn, 50 tbc
Stream #0.1(und): Audio: aac, 44100 Hz, stereo, s16, 126 kb/s
At least one output file must be specified

j'ai avant cette réponse un long message cxommençant par un WARNING: library configuration mismatch