MTS file issue from CANON HFM 41 seen as TGA file with kdenlive 0.8

Hi,

I'm a new user of kdenlive (first day) and I try this product with a CANON HFM 41.
My wife does 50 small clips and the first one (filename 00000.MTS) is seen by kdenlive as a TGA file.
I use the properties item from the contextual menu of the file-chooser dialog box for confirm this point.
I can convert the file (mov file), but I can't use it correctly as a video.

"ffmpeg -i 00000.MTS" gives :
FFmpeg version 0.6.3, Copyright (c) 2000-2010 the FFmpeg developers
built on May 10 2011 11:10:52 with gcc 4.5.2
configuration: --prefix=/usr --libdir=/usr/lib64 --shlibdir=/usr/lib64 --mandir=/usr/man --enable-libmp3lame --enable-libfaac --enable-nonfree --enable-gpl --enable-version3 --enable-postproc --enable-avfilter --enable-libdc1394 --enable-libfaad --enable-libgsm --enable-libopencore-amrnb --enable-libopencore-amrwb --enable-librtmp --enable-libschroedinger --enable-libspeex --enable-libtheora --enable-libx264 --enable-libvpx --enable-runtime-cpudetect --enable-vaapi --disable-vdpau --enable-memalign-hack --enable-pthreads --enable-x11grab --enable-bzlib --enable-zlib --enable-shared --disable-debug --arch=x86_64 --enable-pic --extra-cflags='-I/usr/include -DRUNTIME_CPUDETECT' --extra-ldflags='-L/usr/lib64 -lssl -lcrypto -lz -lusb'
libavutil 50.15. 1 / 50.15. 1
libavcodec 52.72. 2 / 52.72. 2
libavformat 52.64. 2 / 52.64. 2
libavdevice 52. 2. 0 / 52. 2. 0
libavfilter 1.19. 0 / 1.19. 0
libswscale 0.11. 0 / 0.11. 0
libpostproc 51. 2. 0 / 51. 2. 0
[mpegts @ 0x63a4a0]max_analyze_duration reached
Seems stream 0 codec frame rate differs from container frame rate: 50.00 (50/1) -> 50.00 (50/1)
Input #0, mpegts, from '00000.MTS':
Duration: 00:04:17.76, start: 0.820033, bitrate: 7057 kb/s
Program 1
Stream #0.0[0x1011]: Video: h264, yuv420p, 1440x1080 [PAR 4:3 DAR 16:9], 50 fps, 50 tbr, 90k tbn, 50 tbc
Stream #0.1[0x1100]: Audio: ac3, 48000 Hz, stereo, s16, 256 kb/s
At least one output file must be specified

My configuration : Slackware64 13.37 vanilla / kdenlive 0.8 width KDE 4.5.5 / Intel Core i7 2600K.
I uses packages provided by http://www.mlange.dds.nl/kdenlive.html

Is a workaround exists ?

I hope some help,
Regards

(I apologize for "my English", I'm French)

Forums: